Loading...
Error

Богемская рапсодия / Bohemian Rhapsody (Брайан Сингер) [2018 г., драма, биография, музыка, WEB-DL 720p] Rus (Dub iTunes) + Ukr (Dub iTunes) + Original + Sub

Статистика раздачи
Размер:  4,65 GB   |    Зарегистрирован:  1 год 6 месяцев   |    Скачан:  24 раза

Полного источника не было: 5 часов

Сидов:  0  |  0 KB/s  ]   Личеров:  0  |  0 KB/s  ]

* - сиды/пиры с внешних источников

   
 
Автор Сообщение

makkol Пол:Муж

25-Янв-2019 11:33

Богемская рапсодия / Bohemian Rhapsody
«Круче их музыки только их история»


Год выпуска: 2018
Жанр: драма, биография, музыка
Производство: Великобритания , США [GK Films, New Regency Pictures, Queen Films Ltd.]
Режиссер: Брайан Сингер
В ролях: Рами Малек, Люси Бойнтон, Гвилим Ли, Бен Харди, Джозеф Маццелло, Майк Майерс, Эйден Гиллен, Том Холландер, Аллен Лич, Аарон МакКаскер, Эйс Бхатти, Прия Блэкберн, Дермот Мерфи, Тим Плестер, Дики Бо
Сюжет фильма:
Чествование группы Queen, их музыки и их выдающегося вокалиста Фредди Меркьюри, который бросил вызов стереотипам и победил условности, чтобы стать одним из самых любимых артистов на планете. Фильм прослеживает головокружительный путь группы к успеху, благодаря их культовым песням и революционному звуку, практически распад коллектива, поскольку образ жизни Меркьюри выходит из-под контроля, и их триумфальное воссоединение накануне концерта Live Aid, ставшим одним из величайших выступлений в истории рок-музыки.

  • Мировая премьера: 23 октября 2018
  • Российская премьера: 1 ноября 2018


Качество видео: WEB-DL 720p

Продолжительность: 02:15:19
Формат: MKV
Видео: MPEG-4 AVC, 1280x534 (2.40:1), 23.976 fps, 4031 kbps
Аудио #1: русский, дублированный (iTunes), AC3 5.1, 48 kHz, 384 kbps
Аудио #2: украинский, дублированный (iTunes), AAC 2.0, 44.1 kHz, 122 kbps
Аудио #3: английский, оригинал, AC3 5.1, 48 kHz, 384 kbps
Субтитры: русские (Forced, full), украинские (Forced, full), английские (SDH, SDH Colored) вшитые отключаемые

Код:

Format : Matroska
Format version : Version 4
File size : 4.65 GiB
Duration : 2 h 15 min
Overall bit rate : 4 920 kb/s
Movie name : Bohemian Rhapsody 2018 from селезень
Encoded date : UTC 2019-01-25 02:03:54
Writing application : mkvmerge v29.0.0 ('Like It Or Not') 64-bit
Writing library : libebml v1.3.6 + libmatroska v1.4.9

Video
ID : 1
Format : AVC
Format/Info : Advanced Video Codec
Format profile : Main@L3.1
Format settings : 2 Ref Frames
Format settings, CABAC : No
Format settings, ReFrames : 2 frames
Codec ID : V_MPEG4/ISO/AVC
Duration : 2 h 15 min
Bit rate : 4 031 kb/s
Width : 1 280 pixels
Height : 534 pixels
Display aspect ratio : 2.40:1
Frame rate mode : Constant
Frame rate : 23.976 FPS
Color space : YUV
Chroma subsampling : 4:2:0
Bit depth : 8 bits
Scan type : Progressive
Bits/(Pixel*Frame) : 0.246
Stream size : 3.81 GiB (82%)
Language : English
Default : Yes
Forced : No
Color range : Limited
Color primaries : BT.709
Transfer characteristics : BT.709
Matrix coefficients : BT.709

Audio #1
ID : 2
Format : AC-3
Format/Info : Audio Coding 3
Commercial name : Dolby Digital
Codec ID : A_AC3
Duration : 2 h 14 min
Bit rate mode : Constant
Bit rate : 384 kb/s
Channel(s) : 6 channels
Channel layout : L R C LFE Ls Rs
Sampling rate : 48.0 kHz
Frame rate : 31.250 FPS (1536 SPF)
Bit depth : 16 bits
Compression mode : Lossy
Stream size : 370 MiB (8%)
Title : iTunes
Language : Russian
Service kind : Complete Main
Default : Yes
Forced : Yes

Audio #2
ID : 3
Format : AAC LC
Format/Info : Advanced Audio Codec Low Complexity
Codec ID : A_AAC-2
Duration : 2 h 14 min
Bit rate : 122 kb/s
Channel(s) : 2 channels
Channel layout : L R
Sampling rate : 44.1 kHz
Frame rate : 43.066 FPS (1024 SPF)
Compression mode : Lossy
Stream size : 118 MiB (2%)
Title : iTunes
Language : Ukrainian
Default : No
Forced : No

Audio #3
ID : 4
Format : AC-3
Format/Info : Audio Coding 3
Commercial name : Dolby Digital
Codec ID : A_AC3
Duration : 2 h 14 min
Bit rate mode : Constant
Bit rate : 384 kb/s
Channel(s) : 6 channels
Channel layout : L R C LFE Ls Rs
Sampling rate : 48.0 kHz
Frame rate : 31.250 FPS (1536 SPF)
Bit depth : 16 bits
Compression mode : Lossy
Stream size : 370 MiB (8%)
Title : Original
Language : English
Service kind : Complete Main
Default : No
Forced : No

Text #1
ID : 5
Format : UTF-8
Codec ID : S_TEXT/UTF8
Codec ID/Info : UTF-8 Plain Text
Duration : 2 h 13 min
Bit rate : 2 b/s
Count of elements : 55
Stream size : 2.81 KiB (0%)
Title : Forced
Language : Russian
Default : Yes
Forced : Yes

Text #2
ID : 6
Format : UTF-8
Codec ID : S_TEXT/UTF8
Codec ID/Info : UTF-8 Plain Text
Duration : 2 h 13 min
Bit rate : 72 b/s
Count of elements : 1753
Stream size : 70.7 KiB (0%)
Title : Full
Language : Russian
Default : No
Forced : No

Text #3
ID : 7
Format : UTF-8
Codec ID : S_TEXT/UTF8
Codec ID/Info : UTF-8 Plain Text
Duration : 2 h 13 min
Bit rate : 3 b/s
Count of elements : 71
Stream size : 3.87 KiB (0%)
Title : Forced
Language : Ukrainian
Default : No
Forced : No

Text #4
ID : 8
Format : UTF-8
Codec ID : S_TEXT/UTF8
Codec ID/Info : UTF-8 Plain Text
Duration : 2 h 13 min
Bit rate : 77 b/s
Count of elements : 1753
Stream size : 75.4 KiB (0%)
Title : Full
Language : Ukrainian
Default : No
Forced : No

Text #5
ID : 9
Format : UTF-8
Codec ID : S_TEXT/UTF8
Codec ID/Info : UTF-8 Plain Text
Duration : 2 h 11 min
Bit rate : 68 b/s
Count of elements : 2268
Stream size : 65.6 KiB (0%)
Title : SDH
Language : English
Default : No
Forced : No

Text #6
ID : 10
Format : UTF-8
Codec ID : S_TEXT/UTF8
Codec ID/Info : UTF-8 Plain Text
Duration : 2 h 11 min
Bit rate : 92 b/s
Count of elements : 2269
Stream size : 88.9 KiB (0%)
Title : SDH Colored
Language : English
Default : No
Forced : No

Menu
00:00:00.000 : en:Chapter 01
00:03:48.728 : en:Chapter 02
00:07:45.464 : en:Chapter 03
00:11:16.591 : en:Chapter 04
00:17:41.808 : en:Chapter 05
00:21:03.175 : en:Chapter 06
00:27:24.181 : en:Chapter 07
00:33:34.843 : en:Chapter 08
00:37:22.278 : en:Chapter 09
00:45:24.009 : en:Chapter 10
00:52:19.590 : en:Chapter 11
00:56:57.200 : en:Chapter 12
01:03:11.406 : en:Chapter 13
01:10:44.984 : en:Chapter 14
01:15:25.722 : en:Chapter 15
01:21:45.893 : en:Chapter 16
01:26:59.163 : en:Chapter 17
01:32:18.190 : en:Chapter 18
01:36:43.914 : en:Chapter 19
01:43:25.564 : en:Chapter 20
01:50:23.272 : en:Chapter 21
01:54:22.885 : en:Chapter 22
02:00:41.096 : en:Chapter 23
02:07:53.318 : en:Chapter 24
Релиз:

picpicpicpicpic
Для увеличения картинки щелкните мышкой по превью

Этот торрент недоступен для скачивания без регистрации, однако доступен по публичной magnet-ссылке (источники с публичных трекеров). Перед использованием ссылки прочтите, пожалуйста Пользовательское соглашение, а также как можно дольше оставайтесь на раздаче! Для того, чтобы скачать сам торрент-файл (который видит больше источников), а также для того, чтобы поблагодарить релизера, вам необходимо зарегистрироваться. Если регистрироваться лень - вы можете также попробовать скачать релиз по нашим партнерским ссылкам ниже. Кроме того, зарегистрированным пользователям не показывается всплывающая реклама при скачивании.

[underverse.name].t125071.torrent
Трекер: Зарегистрирован   [ 25.01.2019 11:33 ]  

Статус: T временная (by makkol at 25.01.2019 11:34)
Поблагодарили: пока никто не поблагодарил...
Тип торрента: публичный - доступные источники с открытых трекеров: 
Размер: 4,65 GB (занимает 1,06 DVDR, для записи нужно 2 болванки DVDR/RW)
 
 
Похожие темы
Форум Тема Автор Торрент Отв. Посл. сооб.
Зарубежное кино [DVDRip, Low-Res HDRip, и т.д.] Богемская рапсодия / Bohemian Rhapsody (Брайан Сингер / Bryan Singer) [2018 г., драма, биография, музыка, BDRip] Dub + Sub (Rus) 90ytr90
353 | 1

0 | 1018

18

08.02.2019 20:16

Зарубежное кино [DVDRip, Low-Res HDRip, и т.д.] Богемская рапсодия / Bohemian Rhapsody (Брайан Сингер / Bryan Singer) [2018 г., драма, биография, музыка, BDRip] Dub + Sub (Rus) 90ytr90
117 | 0

0 | 790

8

08.02.2019 20:16

Зарубежное кино [DVDRip, Low-Res HDRip, и т.д.] Богемская рапсодия / Bohemian Rhapsody (Брайан Сингер / Bryan Singer) [2018 г., драма, биография, музыка, BDRip-AVC] Dub + Original (Eng) + Sub (Rus, Eng) 90ytr90
13 | 0

0 | 730

4

08.02.2019 20:19

Зарубежное кино [DVDRip, Low-Res HDRip, и т.д.] Богемская рапсодия / Bohemian Rhapsody (Брайан Сингер / Bryan Singer) [2018 г., драма, биография, музыка, BDRip-AVC] 2xDub (Rus, Ukr) + Original (Eng) + Sub (Rus, Ukr, Eng) 90ytr90
9 | 0

0 | 718

5

08.02.2019 20:23

Зарубежное кино [DVDRip, Low-Res HDRip, и т.д.] Богемская рапсодия / Bohemian Rhapsody (Брайан Сингер / Bryan Singer) [2018 г., драма, биография, музыка, BDRip] Dub + hardsub (Rus) 90ytr90
14 | 0

0 | 698

21

08.02.2019 20:24

Зарубежное кино [DVDRip, Low-Res HDRip, и т.д.] Богемская рапсодия / Bohemian Rhapsody (Брайан Сингер / Bryan Singer) [2018 г., драма, биография, музыка, BDRip] Dub + hardsub (Rus) 90ytr90
10 | 1

0 | 755

16

08.02.2019 20:25

Зарубежное кино [DVD / HDDVD / BD / Remux] Богемская рапсодия / Bohemian Rhapsody (Брайан Сингер / Bryan Singer) [2018 г., драма, биография, музыка, BDRemux 1080p] 2xDub (Rus, Ukr) + Original (Eng) + Sub (Rus, Ukr, Eng) 90ytr90
11 | 0

0 | 758

14

08.02.2019 20:22

T Зарубежное кино [HDDVDRip / BDRip / WEB-DL / HDTV 1080/720р] Богемская рапсодия / Bohemian Rhapsody (Брайан Сингер) [2018 г., драма, биография, музыка, WEB-DL 1080p] Rus (Dub iTunes) + Ukr (Dub iTunes) + Original + Sub makkol
63 | 1

0 | 1467

66

25.01.2019 11:43

Зарубежное кино [HDDVDRip / BDRip / WEB-DL / HDTV 1080/720р] Богемская рапсодия / Bohemian Rhapsody (Брайан Сингер / Bryan Singer) [2018 г., драма, биография, музыка, BDRip 1080p] Dub + Sub (Rus) + hardsub (Rus) 90ytr90
151 | 1

0 | 832

14

08.02.2019 20:10

Зарубежное кино [HDDVDRip / BDRip / WEB-DL / HDTV 1080/720р] Богемская рапсодия / Bohemian Rhapsody (Брайан Сингер / Bryan Singer) [2018 г., драма, биография, музыка, BDRip 1080p] 2xDub (Rus, Ukr) + Original (Eng) + Sub (Rus, Ukr, Eng) 90ytr90
23 | 0

0 | 719

8

08.02.2019 20:17


Яндекс.Метрика powered by Sphinx


В Н И М А Н И Е
Сайт не распространяет и не хранит электронные версии произведений, а лишь бесплатно и без коммерческой выгоды (не требуя взамен платы,
SMS и т.д.) предоставляет доступ к создаваемому пользователями каталогу ссылок на торрент-файлы, которые содержат только списки хеш-сумм.
Убедительная просьба с жалобами обращаться напрямую к пользователю, разместившему торрент файл.

Вверх