Loading...
Error

Вивариум / Vivarium (Лоркан Финнеган) [2019 г., фантастика, драма, WEB-DL 1080p] MVO (HDRezka Studio) + Original + Sub

Статистика раздачи
Размер:  6,51 GB   |    Зарегистрирован:  2 месяца 3 дня   |    Скачан:  48 раз
Сидов:  4  |  18 KB/s  ]   Личеров:  0  |  0 KB/s  ]

* - сиды/пиры с внешних источников

   
 
Автор Сообщение

makkol Пол:Муж

11-Май-2020 21:31

Вивариум / Vivarium
«Ваш дом. До гроба»


Год выпуска: 2019
Жанр: фантастика, драма
Производство: Ирландия , Дания , Бельгия [Lovely Productions, Fantastic Films, Frakas Productions]
Режиссер: Лоркан Финнеган
В ролях: Имоджен Путс, Даниэль Райан, Молли Макканн, Джесси Айзенберг, Джонатан Арис, Сенан Дженнингс, Инна Хардвик, Ольга Верли, Джек Хадсон
Сюжет фильма:
В поисках идеального дома молодая пара знакомится со странным агентом по недвижимости. Он привозит их в новый поселок в пригороде, а затем исчезает. Том и Джемма с ужасом понимают, что они абсолютно одни в этом жутковато-стерильном лабиринте одинаковых домов и что из него нет выхода. Вскоре их одиночество будет прервано появлением у дверей коробки с младенцем, который похож на человека лишь внешне…

  • Мировая премьера: 18 мая 2019


Качество видео: WEB-DL 1080p

Продолжительность: 01:38:34
Формат: MKV
Видео: MPEG-4 AVC, 1920x800 (2.40:1), 23.976 fps, 8368 kbps
Аудио #1: русский, профессиональный многоголосый закадровый (HDRezka Studio), AC3 5.1, 48 kHz, 448 kbps
Аудио #2: английский, оригинал, AC3 5.1, 48 kHz, 640 kbps
Субтитры: русские (Forced, Full), английские (Full, SDH) вшитые отключаемые

Код:

Общее
Уникальный идентификатор : 75510838498120738310495881830470746117 (0x38CEDBC6960441B10C0D3626881F8005)
Полное имя : Vivarium.2019.WEB-DL.1080p.W.mkv
Формат : Matroska
Версия формата : Version 4
Размер файла : 6,51 Гбайт
Продолжительность : 1 ч. 38 м.
Общий поток : 9458 Кбит/сек
Название фильма : Vivarium.2019.WEB-DL.1080p.W
Дата кодирования : UTC 2020-03-30 13:17:02
Программа кодирования : mkvmerge v23.0.0 ('The Bride Said No') 64-bit
Библиотека кодирования : libebml v1.3.6 + libmatroska v1.4.9

Видео
Идентификатор : 1
Формат : AVC
Формат/Информация : Advanced Video Codec
Профиль формата : High@L4
Настройки формата : CABAC / 4 Ref Frames
Параметр CABAC формата : Да
Параметр RefFrames формата : 4 кадра
Идентификатор кодека : V_MPEG4/ISO/AVC
Продолжительность : 1 ч. 38 м.
Вид битрейта : Постоянный
Битрейт : 8368 Кбит/сек
Номинальный битрейт : 10000 Кбит/сек
Ширина : 1920 пикселей
Высота : 800 пикселей
Соотношение сторон : 2,40:1
Режим частоты кадров : Постоянный
Частота кадров : 23,976 (24000/1001) кадра/сек
Цветовое пространство : YUV
Субдискретизация насыщенности : 4:2:0
Битовая глубина : 8 бит
Тип развёртки : Прогрессивная
Бит/(Пиксели*Кадры) : 0.227
Размер потока : 5,76 Гбайт (88%)
Default : Да
Forced : Нет
Цветовой диапазон : Limited
Основные цвета : BT.709
Характеристики трансфера : BT.709
Коэффициенты матрицы : BT.709

Аудио #1
Идентификатор : 2
Формат : AC-3
Формат/Информация : Audio Coding 3
Коммерческое название : Dolby Digital
Идентификатор кодека : A_AC3
Продолжительность : 1 ч. 38 м.
Вид битрейта : Постоянный
Битрейт : 448 Кбит/сек
Каналы : 6 каналов
ChannelLayout : L R C LFE Ls Rs
Частота : 48,0 КГц
Частота кадров : 31,250 кадров/сек (1536 SPF)
Метод сжатия : С потерями
Размер потока : 316 Мбайт (5%)
Заголовок : MVO | HDrezka Studio
Язык : Russian
ServiceKind : Complete Main
Default : Да
Forced : Нет

Аудио #2
Идентификатор : 3
Формат : E-AC-3
Формат/Информация : Enhanced AC-3
Коммерческое название : Dolby Digital Plus
Идентификатор кодека : A_EAC3
Продолжительность : 1 ч. 38 м.
Вид битрейта : Постоянный
Битрейт : 640 Кбит/сек
Каналы : 6 каналов
ChannelLayout : L R C LFE Ls Rs
Частота : 48,0 КГц
Частота кадров : 31,250 кадров/сек (1536 SPF)
Метод сжатия : С потерями
Размер потока : 451 Мбайт (7%)
Язык : English
ServiceKind : Complete Main
Default : Нет
Forced : Нет

Текст #1
Идентификатор : 4
Формат : UTF-8
Идентификатор кодека : S_TEXT/UTF8
Идентификатор кодека/Информация : UTF-8 Plain Text
Продолжительность : 1 ч. 27 м.
Битрейт : 0 бит/сек
ElementCount : 6
Размер потока : 334 байт (0%)
Заголовок : Forced
Язык : Russian
Default : Да
Forced : Нет

Текст #2
Идентификатор : 5
Формат : UTF-8
Идентификатор кодека : S_TEXT/UTF8
Идентификатор кодека/Информация : UTF-8 Plain Text
Продолжительность : 1 ч. 27 м.
Битрейт : 37 бит/сек
ElementCount : 610
Размер потока : 24,0 Кбайт (0%)
Заголовок : Full (MENINSUB)
Язык : Russian
Default : Нет
Forced : Нет

Текст #3
Идентификатор : 6
Формат : UTF-8
Идентификатор кодека : S_TEXT/UTF8
Идентификатор кодека/Информация : UTF-8 Plain Text
Продолжительность : 1 ч. 33 м.
Битрейт : 24 бит/сек
ElementCount : 689
Размер потока : 16,8 Кбайт (0%)
Язык : English
Default : Нет
Forced : Нет

Текст #4
Идентификатор : 7
Формат : UTF-8
Идентификатор кодека : S_TEXT/UTF8
Идентификатор кодека/Информация : UTF-8 Plain Text
Продолжительность : 1 ч. 34 м.
Битрейт : 31 бит/сек
ElementCount : 876
Размер потока : 21,5 Кбайт (0%)
Заголовок : SDH
Язык : English
Default : Нет
Forced : Нет

Этот торрент недоступен для скачивания без регистрации, однако доступен по публичной magnet-ссылке (источники с публичных трекеров). Перед использованием ссылки прочтите, пожалуйста Пользовательское соглашение, а также как можно дольше оставайтесь на раздаче! Для того, чтобы скачать сам торрент-файл (который видит больше источников), а также для того, чтобы поблагодарить релизера, вам необходимо зарегистрироваться. Если регистрироваться лень - вы можете также попробовать скачать релиз по нашим партнерским ссылкам ниже. Кроме того, зарегистрированным пользователям не показывается всплывающая реклама при скачивании.

[underver.se].t167932.torrent
Трекер: Зарегистрирован   [ 11.05.2020 21:31 ]  

Статус: проверено (by makkol at 11.05.2020 21:32)
Поблагодарили: пока никто не поблагодарил...
Тип торрента: публичный - доступные источники с открытых трекеров: 
Размер: 6,51 GB (занимает 1,49 DVDR, для записи нужно 2 болванки DVDR/RW)
 
 
Похожие темы
Форум Тема Автор Торрент Отв. Посл. сооб.
T Зарубежное кино [DVDRip, Low-Res HDRip, и т.д.] Вивариум / Vivarium (Лоркан Финнеган) [2019 г., фантастика, драма, WEB-DLRip] DVO (@MUZOBOZ@) makkol
57 | 0

0 | 815

54

29.03.2020 10:10

Зарубежное кино [DVDRip, Low-Res HDRip, и т.д.] Вивариум / Vivarium (Лоркан Финнеган) [2019 г., фантастика, драма, WEB-DLRip] MVO (HDRezka Studio) makkol
143 | 2

0 | 735

37

11.05.2020 21:18

* Зарубежное кино [HDDVDRip / BDRip / WEB-DL / HDTV 1080/720р] Вивариум / Vivarium (Лоркан Финнеган) [2019 г., фантастика, детектив, WEB-DL 1080p] AVO (Важенин) + Original + Sub 90ytr90
101 | 1

1 | 567

67

28.03.2020 15:35

T Зарубежное кино [HDDVDRip / BDRip / WEB-DL / HDTV 1080/720р] Вивариум / Vivarium (Лоркан Финнеган) [2019 г., фантастика, драма, WEB-DL 720p] DVO (@MUZOBOZ@) makkol
14 | 0

0 | 520

8

29.03.2020 10:14

T Зарубежное кино [HDDVDRip / BDRip / WEB-DL / HDTV 1080/720р] Вивариум / Vivarium (Лоркан Финнеган) [2019 г., фантастика, драма, WEB-DL 1080p] DVO (@MUZOBOZ@) makkol
19 | 1

0 | 768

44

29.03.2020 10:17

Зарубежное кино [HDDVDRip / BDRip / WEB-DL / HDTV 1080/720р] Вивариум / Vivarium (Лоркан Финнеган) [2019 г., фантастика, драма, WEB-DL 720p] MVO (HDRezka Studio) + AVO (Важенин) + Original + Sub makkol
78 | 2

0 | 574

10

11.05.2020 21:26


Яндекс.Метрика powered by Sphinx


В Н И М А Н И Е
Сайт не распространяет и не хранит электронные версии произведений, а лишь бесплатно и без коммерческой выгоды (не требуя взамен платы,
SMS и т.д.) предоставляет доступ к создаваемому пользователями каталогу ссылок на торрент-файлы, которые содержат только списки хеш-сумм.
Убедительная просьба с жалобами обращаться напрямую к пользователю, разместившему торрент файл.

Вверх