Loading...
Error

Бог, какой ты придурок / Gott, du kannst ein Arsch sein / God, You're Such a Prick (Андре Эркау) [2020 г., драма, мелодрама, комедия, TS 720p] DVO (Синема УС)

Статистика раздачи
Размер:  2,01 GB   |    Зарегистрирован:  2 месяца 17 дней   |    Скачан:  7 раз

Полного источника не было: 12 дней

Сидов:  0  |  0 KB/s  ]   Личеров:  0  |  0 KB/s  ]

* - сиды/пиры с внешних источников

   
 
Автор Сообщение

makkol Пол:Муж

29-Окт-2020 21:53

Бог, какой ты придурок / Gott, du kannst ein Arsch sein / God, You're Such a Prick


Год выпуска: 2020
Жанр: драма, мелодрама, комедия
Производство: Германия [Cactus Films, RTL, UFA Fiction]
Режиссер: Андре Эркау
В ролях: Тиль Швайгер, Хайке Макатч, Бенно Фюрман, Макс Хубахер, Жасмин Герат, Юрген Фогель, Зинье Ирслингер, Инка Фридрих, Дитмар Бер, Мориц Бекерлинг
Сюжет фильма:
После окончания школы молодая девушка узнает о своем страшном диагнозе: рак. Но она отказывается ложиться в больницу и решает насладиться отпущенным ей временем, отправившись в приключение с неожиданным попутчиком.

  • Мировая премьера: 1 октября 2020


Качество видео: TS 720p

Продолжительность: 01:32:15
Формат: MKV
Видео: MPEG-4 AVC, 1280x570, 23.976 fps, 2671 kbps
Аудио: русский, любительский двухголосый закадровый (Синема УС), AC3 2.0, 48 kHz, 384 kbps

Код:

Общее
Полное имя                               : God.Youre.Such.a.Prick.2020.CAMRip.720p-LQ.mkv
Формат                                   : Matroska
Версия формата                           : Version 2
Размер файла                             : 2,01 Гбайт
Продолжительность                        : 1 ч. 32 м.
Режим общего битрейта                    : Переменный
Общий поток                              : 3117 Кбит/сек
Программа кодирования                    : libmatroska 1.4.1
Библиотека кодирования                   : SolveigMM Matroska Muxer Version 1.0.1904.23

Видео
Идентификатор                            : 1
Формат                                   : AVC
Формат/Информация                        : Advanced Video Codec
Профиль формата                          : High@L4.1
Настройки формата                        : CABAC / 4 Ref Frames
Параметр CABAC формата                   : Да
Параметр RefFrames формата               : 4 кадра
Идентификатор кодека                     : V_MPEG4/ISO/AVC
Продолжительность                        : 1 ч. 32 м.
Вид битрейта                             : Переменный
Битрейт                                  : 2671 Кбит/сек
Номинальный битрейт                      : 3000 Кбит/сек
Максимальный битрейт                     : 3000 Кбит/сек
Ширина                                   : 1280 пикселей
Высота                                   : 570 пикселей
Соотношение сторон                       : 2,25:1
Режим частоты кадров                     : Постоянный
Частота кадров                           : 23,976 (24000/1001) кадра/сек
Стандарт вещания                         : Component
Цветовое пространство                    : YUV
Субдискретизация насыщенности            : 4:2:0
Битовая глубина                          : 8 бит
Тип развёртки                            : Прогрессивная
Бит/(Пиксели*Кадры)                      : 0.153
Размер потока                            : 1,72 Гбайт (86%)
Default                                  : Нет
Forced                                   : Нет
Цветовой диапазон                        : Limited
Основные цвета                           : BT.709
Характеристики трансфера                 : BT.709
Коэффициенты матрицы                     : BT.709

Аудио
Идентификатор                            : 2
Формат                                   : AC-3
Формат/Информация                        : Audio Coding 3
Коммерческое название                    : Dolby Digital
Идентификатор кодека                     : A_AC3
Продолжительность                        : 1 ч. 32 м.
Вид битрейта                             : Постоянный
Битрейт                                  : 384 Кбит/сек
Каналы                                   : 2 канала
ChannelLayout                            : L R
Частота                                  : 48,0 КГц
Частота кадров                           : 31,250 кадров/сек (1536 SPF)
Метод сжатия                             : С потерями
Размер потока                            : 253 Мбайт (12%)
Язык                                     : Russian
ServiceKind/String                       : Complete Main
Default                                  : Нет
Forced                                   : Нет

Этот торрент недоступен для скачивания без регистрации, однако доступен по публичной magnet-ссылке (источники с публичных трекеров). Перед использованием ссылки прочтите, пожалуйста Пользовательское соглашение, а также как можно дольше оставайтесь на раздаче! Для того, чтобы скачать сам торрент-файл (который видит больше источников), а также для того, чтобы поблагодарить релизера, вам необходимо зарегистрироваться. Если регистрироваться лень - вы можете также попробовать скачать релиз по нашим партнерским ссылкам ниже. Кроме того, зарегистрированным пользователям не показывается всплывающая реклама при скачивании.

[underver.se].t187048.torrent
Трекер: Зарегистрирован   [ 29.10.2020 21:53 ]  

Статус: T временная (by makkol at 29.10.2020 21:53)
Поблагодарили: пока никто не поблагодарил...
Тип торрента: публичный - доступные источники с открытых трекеров: 
Размер: 2,01 GB (занимает 0,46 DVDR, для записи нужно 1 болванка DVDR/RW)
 
 
Похожие темы
Форум Тема Автор Торрент Отв. Посл. сооб.
T Новинки кино [CAMRip, TS, DVDScr, WP, TC] Бог, какой ты придурок / Gott, du kannst ein Arsch sein / God, You're Such a Prick (Андре Эркау) [2020 г., драма, мелодрама, комедия, TS] DVO (Синема УС) makkol
10 | 0

0 | 463

4

29.10.2020 21:47


Яндекс.Метрика powered by Sphinx


В Н И М А Н И Е
Сайт не распространяет и не хранит электронные версии произведений, а лишь бесплатно и без коммерческой выгоды (не требуя взамен платы,
SMS и т.д.) предоставляет доступ к создаваемому пользователями каталогу ссылок на торрент-файлы, которые содержат только списки хеш-сумм.
Убедительная просьба с жалобами обращаться напрямую к пользователю, разместившему торрент файл.

Вверх